资源搜索:
天天BT交流群
你的位置 : 天天BT > 电影 > 爱情片 > 小时代2:青木时代 MSD Tiny Times 2.0.2013.1080p.HDTV

小时代2:青木时代 MSD Tiny Times 2.0.2013.1080p.HDTV迅雷下载

发布者/来源 eD2k资源
发布时间 2013/9/2
相关标签 2013,时代,小时代,1080,1080p,HDTV
资源类型 eD2k
下载次数 101
评论 我要吐槽
分享
PS 信息来自网络或网友上传.

简介: 
◎译  名 小时代2:青木时代
◎名  称 Tiny Times 2.0
◎时  间 2013 
◎国  别 中国大陆 / 台湾
◎分  类 剧情 / 喜剧 / 爱情 
◎语  言 汉语普通话
◎字  幕 中文/ 英文
◎IMDB分数 Ratings: 2.2/10 from 86 users 
◎文件格式 x264 + AC3
◎视频分辨 1920 x 1080
◎文件容量 1CD 3.29GB
◎时  长 116 min
◎导  演 郭敬明 Jingming Guo
◎主  演 杨幂 Mini Yang ....林萧
        郭采洁 Amber Kuo ....顾里
        郭碧婷 Biting Guo ....南湘
        谢依霖 Sie Yi-Lin ....唐宛如
        柯震东 Zhendong Ke ....顾源凤
        小岳 Rhydian Vaughan ....宫洺
        陈学冬 Xuedong Chen ....周崇光
        杜天皓 Tianhao Du ....卫海
        姜潮 Jo ....席城
        王琳 Lin Wang ....叶传萍
        杨洋 Yang Yang ....林泉
        商侃 Kan Shang ....Kitty
        李悦铭 Yue Ming Li ....简溪
            
◎简     介
      日子一天一天的过去,林萧(杨幂 饰)、顾里(郭采洁 饰)、南湘(郭碧婷饰)、唐宛如(谢依霖饰)四人也迎来了大学毕业这一天,正当所有人都在为毕业之后做着规划的时候,顾里却开始着手自己的生日宴会。这本是一年一度朋友圈里最大的大事,却没想到成为顾里最不愿回想起的记忆,与此同时顾里的家庭发生了重大的变故,她也遭受到了成长以来最大的打击。而林萧、唐宛如、南湘的生活也随着大学生活的结束变得不再平稳。生活相继发生着种种让她们措手不及、不知如何面对、需要抉择的事情。姐妹四人在面对家庭、事业、爱情和友情的巨大转变下,能否依然坚持自己的生活态度?能否坚守住自己的幸福?
你想发布资源吗?点击进入QvoCD电骡 
《骡友保持联系的一种好方式——断头档》 
QvoCD电骡上最新发布的资源 
新手教学看 eMule 0.50a Xtreme 8.0设置
    Format : Matroska
    Format version : Version 4 / Version 2
    File size : 3.29 GiB
    Duration : 1h 56mn
    Overall bit rate : 4 029 Kbps
    Encoded date : UTC 2010-02-22 21:41:31
    Writing application : mkvmerge v5.9.0 ('On The Loose') built on Dec 9 2012 15:37:01
    Writing library : libebml v1.3.0 + libmatroska v1.4.0
  Video #1
    ID : 1
    Format : AVC
    Format/Info : Advanced Video Codec
    Format profile : Main@L4.0
    Format settings, CABAC : Yes
    Format settings, ReFrames : 2 frames
    Muxing mode : Header stripping
    Codec ID : V_MPEG4/ISO/AVC
    Duration : 1h 56mn
    Bit rate : 3 757 Kbps
    Width : 1 920 pixels
    Height : 1 080 pixels
    Display aspect ratio : 16:9
    Frame rate mode : Variable
    Frame rate : 25.000 fps
    Color space : YUV
    Chroma subsampling : 4:2:0
    Bit depth : 8 bits
    Scan type : Progressive
    Bits/(Pixel*Frame) : 0.072
    Stream size : 3.07 GiB (93%)
    Writing library : avc encoder v1.9
    Default : Yes
    Forced : No
  Audio #2
    ID : 2
    Format : AC-3
    Format/Info : Audio Coding 3
    Mode extension : CM (complete main)
    Format settings, Endianness : Big
    Muxing mode : Header stripping
    Codec ID : A_AC3
    Duration : 1h 56mn
    Bit rate mode : Constant
    Bit rate : 192 Kbps
    Channel(s) : 2 channels
    Channel positions : Front: L R
    Sampling rate : 44.1 KHz
    Bit depth : 16 bits
    Compression mode : Lossy
    Stream size : 160 MiB (5%)
    Default : Yes
    Forced : No

【TIPS】:要下载资源,首先,你得有一个女朋友...哦不,是你得有一个BT下载工具(例如迅雷啊、迅雷啊之类的)。
【继续TIPS】:如不能下载或者迅雷下载出错请进群【报错】!群主会抚慰你受伤的心灵的……
天天BT交流群
热门下载:

随机推荐: