资源搜索:
天天BT交流群
你的位置 : 天天BT > 电影 > 喜剧片 > 干掉客户 Gan.Diao.Ke.Hu.2013.1080p.WEB

干掉客户 Gan.Diao.Ke.Hu.2013.1080p.WEB迅雷下载

发布者/来源 eD2k资源
发布时间 2013/9/1
相关标签 2013,1080,1080p,干掉客户
资源类型 eD2k
下载次数 490
评论 我要吐槽
分享
PS 信息来自网络或网友上传.

简介: 
导演: 高伟伦
编剧: 高伟伦 赵晨 张金克
主演: 张卓霖、王曼灵、戴予桐、武夜、周冉 / 路闯、孟泽蕊、周欣
类型: 喜剧 / 情色 / 犯罪 / 冒险
制片国家/地区: 中国大陆
语言: 汉语普通话
上映日期: 2013-08-28(中国大陆)
片长: 70分钟
.
剧情简介 · 
  Willam、疯子、kitty,三个人带着黑超眼镜,好像复仇天使一般。 
  七包拉着一个麻袋从远处拖入画。麻袋打开,一个老外公司老板嘴里堵着东西惊恐的看着他们。 
  “你们这帮垃圾,侮辱广告、强奸创意、拖欠尾款、中饱私囊、玩什么潜规则。”willam拿着一杆枪,慢慢的走向他,边走边说。最后站到他跟前,一枪爆头。 
  Willam叹了一口气,点上一根烟,一边打开iphone耳机听着交响乐,冷静的望了望远方。 
  “我叫willam,麦格传媒B组的创意总监,广告人以创意谋生,如果不把创意作为一种生活方式来看待,也许是世上最苦的事了,何谓创意?比如说客户是上帝,但我现在却要干掉我的上帝。这就是一个很有创意的行为。 
你想发布资源吗?点击进入QvoCD电骡 
《骡友保持联系的一种好方式——断头档》 
QvoCD电骡上最新发布的资源 
新手教学看 eMule 0.50a Xtreme 8.0设置
    File size : 1.77 GiB
    Duration : 1h 4mn
    Overall bit rate : 3 899 Kbps
  Video
    Format : AVC
    Format/Info : Advanced Video Codec
    Format profile : Main@L4.0
    Format settings, CABAC : Yes
    Format settings, ReFrames : 2 frames
    Codec ID : 7
    Duration : 1h 6mn
    Bit rate : 3 674 Kbps
    Width : 1 920 pixels
    Height : 1 080 pixels
    Display aspect ratio : 16:9
    Frame rate mode : Constant
    Frame rate : 25.000 fps
    Color space : YUV
    Chroma subsampling : 4:2:0
    Bit depth : 8 bits
    Scan type : Progressive
    Bits/(Pixel*Frame) : 0.071
    Stream size : 1.71 GiB (97%)
    Writing library : avc encoder v1.9
  Audio
    Format : AAC
    Format/Info : Advanced Audio Codec
    Format profile : LC
    Codec ID : 10
    Duration : 1h 8mn
    Bit rate : 126 Kbps
    Channel(s) : 2 channels
    Channel positions : Front: L R
    Sampling rate : 44.1 KHz
    Compression mode : Lossy
    Delay relative to video : 40ms
    Stream size : 61.5 MiB (3%)

【TIPS】:要下载资源,首先,你得有一个女朋友...哦不,是你得有一个BT下载工具(例如迅雷啊、迅雷啊之类的)。
【继续TIPS】:如不能下载或者迅雷下载出错请进群【报错】!群主会抚慰你受伤的心灵的……
天天BT交流群
热门下载:

随机推荐: