资源搜索:
天天BT交流群
你的位置 : 天天BT > 电影 > 剧情片 > [欧美][剧情][应召女孩/应召女郎][BRRip-MKV/3.99G][英语中字]

[欧美][剧情][应召女孩/应召女郎][BRRip-MKV/3.99G][英语中字]迅雷下载

发布者/来源 tiantianbt
发布时间 2013/8/13
相关标签 欧美,英语,女孩,剧情,女郎,中字,应召女郎,应召女孩
资源类型 BT种子
下载次数 449
评论 我要吐槽
分享
PS 信息来自网络或网友上传.

 

◎译  名 应召女孩/应召女郎/直捣上流的女孩
◎片  名 Call Girl
◎年  代 2012
◎国  家 瑞典/挪威/芬兰/爱尔兰
◎类  别 剧情/惊悚
◎语  言 瑞典语
◎字  幕 英文/瑞典文/丹麦文/挪威文/芬兰文
◎IMDB评分 6.8/10 from 1,001  users
◎IMDB链接 http://www.imdb.com/title/tt1977739
◎文件格式 XVID + AC3
◎视频尺寸 1280x534
◎文件大小 1CD 3.99 GB
◎片  长 2:19:35
◎导  演 米科尔·马锡梅恩 Mikael Marcimain
◎主  演 大卫·丹席克 David Dencik  ....Aspen
      佩尼拉·奥盖斯特 Pernilla August  ....Dagmar Glans
      鲁斯·维嘉·费尔南德兹 Ruth Vega Fernandez  ....Sasha Muntze
      克里斯托弗·琼勒 Kristoffer Joner  ....Soren Laurell-Wall
      斯文·诺丁 Sven Nordin  ....Glen
      Josefin Asplund  ....Sonja Hansson
      斯维尔·古德纳松 Sverrir Gudnason  ....Krister
      Magnus Krepper  ....Prime minister
      欧提·马纳帕 Outi Maenpaa  ....Sirja
      Dag Malmberg  ....Politician
      Peter Carlberg  ....Prosecutor Wahl
      Claes Ljungmark  ....Minister of justice
      Jennie Silfverhjelm  ....Sylvia
      Sven Ahlstrom  ....Stig Hall
      Mats Blomgren  ....Permanent secretary
      Simon J. Berger  ....John
      Klas Ostergren  ....Jenkert
      Fred Anderson  ....Press photographer
      Rasmus Troedsson  ....Sorenson
      Kalle Josephson  ....Nils H's Lakej 1
      Sofia Karemyr  ....Iris
      Bjorn Andersson  ....Rundgren
      Lena B. Eriksson  ....Britt
      Claes-Goran Turesson  ....Chief of the police
      Boman Oscarsson  ....Holm
      Andreas Kundler  ....Stovelkn?ckten
      Lars Green  ....Kurt Nygren
      Anders Beckman  ....Roy
      Anna Takanen  ....Anita
      Hanna Ullerstam  ....Mona Lindwall
      Eddie Hultén  ....David
      Anna Bjelkerud  ....Chancellery secretary
      Anna Lyons  ....Lena
      Roger Storm  ....Langerud
      Emilie Jonsson  ....Maritsa
      Louise Peterhoff  ....Ulla
      Maria Alm Norell  ....Gunnel
      Per Trollvik
      Wieslaw Figacz
      Lars Helander  ....Colonel
      Magnus Carlsson
      Frida Rohl  ....Gita
      Valerie Spelman  ....Actress
      Julia Lindblom  ....Maria
      Rasmus Lindgren  ....Holmnas social worker

◎简  介 

影片背景设置在20世纪70年代后期,一个关于妇女解放、性开放、瑞典中立政策(Swedishneutrality)、核能开发以及社会保障的时代。影片围绕两条线索展开,一条处在社会的底层,黑暗的穷街陋巷当中,另一条则生在光鲜夺目的上流社会。电影受到了当时在瑞典引起很大震动的“Bordellh?rvan丑闻事件”的启发,当时,许多在社会上和政界有头有脸的人物被牵涉到一起雏妓卖淫事件当中。

获奖记录

多伦多国际电影节 Toronto International Film Festival
第37届 (2012)
获奖
·国际影评人奖(费比西奖)-发现单元奖 米科尔·马锡梅恩 Mikael Marcimain
  1.  
  2. Info:
  3. Format                                   : DivX
  4. Format/Info                              : Hack of AVI
  5. Format profile                           : OpenDML
  6. File size                                : 3.99 GiB
  7. Duration                                 : 2h 19mn
  8. Overall bit rate                         : 4 097 Kbps
  9. Movie name                               : www.RARBG.com
  10. Writing application                      : Lavf55.11.101
  11.  
  12. Video
  13. ID                                       : 0
  14. Format                                   : MPEG-4 Visual
  15. Format profile                           : Advanced Simple@L5
  16. Format settings, BVOP                    : 3
  17. Format settings, QPel                    : No
  18. Format settings, GMC                     : No warppoints
  19. Format settings, Matrix                  : Default (H.263)
  20. Codec ID                                 : XVID
  21. Codec ID/Hint                            : XviD
  22. Duration                                 : 2h 19mn
  23. Bit rate                                 : 3 423 Kbps
  24. Width                                    : 1 280 pixels
  25. Height                                   : 532 pixels
  26. Display aspect ratio                     : 2.40:1
  27. Original display aspect ratio            : 2.40:1
  28. Frame rate                               : 24.000 fps
  29. Color space                              : YUV
  30. Chroma subsampling                       : 4:2:0
  31. Bit depth                                : 8 bits
  32. Scan type                                : Progressive
  33. Compression mode                         : Lossy
  34. Bits/(Pixel*Frame)                       : 0.209
  35. Stream size                              : 3.34 GiB (84%)
  36. Writing library                          : XviD 64
  37.  
  38. Audio
  39. ID                                       : 1
  40. Format                                   : AC-3
  41. Format/Info                              : Audio Coding 3
  42. Mode extension                           : CM (complete main)
  43. Format settings, Endianness              : Big
  44. Codec ID                                 : 2000
  45. Duration                                 : 2h 19mn
  46. Bit rate mode                            : Constant
  47. Bit rate                                 : 640 Kbps
  48. Channel(s)                               : 2 channels
  49. Channel positions                        : Front: L R
  50. Sampling rate                            : 48.0 KHz
  51. Bit depth                                : 16 bits
  52. Compression mode                         : Lossy
  53. Stream size                              : 639 MiB (16%)
  54. Alignment                                : Aligned on interleaves
  55. Interleave, duration                     : 32 ms (0.77 video frame)
  56. Interleave, preload duration             : 32 ms
电影截图

 

【TIPS】:要下载资源,首先,你得有一个女朋友...哦不,是你得有一个BT下载工具(例如迅雷啊、迅雷啊之类的)。
【继续TIPS】:如不能下载或者迅雷下载出错请进群【报错】!群主会抚慰你受伤的心灵的……
天天BT交流群
热门下载:

随机推荐: