资源搜索:
天天BT交流群
你的位置 : 天天BT天堂 > 电影 > 惊悚片 > [古墓丽影]Lara.Croft.Tomb.Raider.Pack.BluRay.720p.x264.AC3-CnSCG[中英字幕/6.0G]

[古墓丽影]Lara.Croft.Tomb.Raider.Pack.BluRay.720p.x264.AC3-CnSCG[中英字幕/6.0G]迅雷下载

发布者/来源 在奇艺
发布时间 2017/11/30
相关标签 字幕,中英字幕,古墓丽影,720p,x264
资源类型 磁力链接
下载次数 4
评论 我要吐槽
分享
PS 信息来自网络或网友上传.


◎译  名 古墓丽影
◎片  名 Lara Croft: Tomb Raider
◎年  代 2001
◎国  家 美国/日本/德国/英国
◎类  别 动作/冒险/幻想
◎语  言 英语/普通话
◎字  幕 繁体中文/英文
◎IMDB评分 5.3/10 (40,593 votes)
◎IMDB链接 http://www.imdb.com/title/tt0146316
◎片  长 100 min
◎导  演 西蒙?韦斯特 Simon West
◎主  演 安吉丽娜?朱莉 Angelina Jolie  .....Lara Croft
      乔恩?沃伊特 Jon Voight  .....Lord Richard Croft
      伊恩?格雷 Iain Glen  .....Manfred Powell
      诺亚?泰勒 Noah Taylor  .....Bryce
      丹尼尔?克雷格 Daniel Craig  .....Alex West
      Richard Johnson  .....Distinguished Gentleman
      Chris Barrie  .....Hillary (as Christopher Barrie)
      Julian Rhind-Tutt  .....Mr. Pimms
      莱斯利?菲利普斯 Leslie Phillips  .....Wilson
      Robert Phillips  .....Julius, Assault Team Leader
◎简  介 
 正当三颗行星在天上排成一列时,萝拉卡芙特在他父亲寇伯爵二十年前挖掘古墓带回来的箱子里,找到一具神秘的时钟。
  多年前,她父亲曾跟她提到一个叫作光明会的神秘组织,这个组织一直在寻找一具古钟,他们相信这具古钟是打开时间和空间的钥匙,这把钥匙是一块结晶的陨石金属所铸成的三角形神秘务体,五千年前被用来消灭他们所有的敌人。
  这块三角形被分成两半,只要把这两半结合为一,光明会的始组将获得重生,人类的未来也将永远改变。四十八小时后,当行星完全排成一列,天空将出现日全蚀现象,而这时后三角的力量达到巅峰,如果错过这个时辰,就必须再等待另一个五千年。
  萝拉必须在短短的两天内,先到柬埔寨的光舞墓,找到三角形其中的一半,然后再赶到西伯利亚的万影窟,找到另一半。萝拉寇芙特究竟能不能在四十八小时内,找到神秘的三角形,并且及时拯救宇宙呢?
一句话评论:
Who Is Lara Croft?

Born into wealth. Groomed by the elite. Trained for combat.

Heiress to a fortune...

The Biggest Adventure Begins 2001

朱莉的紧身T恤比影片的动作场面更吸引人。
――《好莱坞报道》
虽然《古墓丽影》与多数同类影片一样令人厌倦,但安吉丽娜?朱莉却为影片增色不少。
――《波士顿环球报》
影片充满着喧嚣、老套、空洞、狂乱、无味、单调、以及不见血腥的暴力和没有性内容的性感。
――《华盛顿邮报》
就像看别人在玩电脑游戏。
――《纽约时报》
幕后制作:
  本片是根据1996年发布的电脑游戏《古墓丽影》改编而成,这部系列角色动作游戏曾风靡世界,大受欢迎,有着众多的“劳拉迷”,使得游戏女主角“劳拉?克劳福特”不仅仅只是一个游戏角色,而成了一个现实生活的公众人物。精明的好莱坞片商自然不会放弃这个赚钱的好机会,筹划将其搬上银幕。对于由谁来扮演劳拉,竞争者众多,剧组甚至在网上搞了一个征求“劳拉迷”意见的活动,最终确定了曾荣获奥斯卡金像奖的安吉丽娜?朱莉扮演电影版的劳拉。可以说这部让影迷及电脑游戏迷都望眼欲穿的大制作影片从筹拍、选角、拍摄制作过程中,始终吸引着全球游戏迷的目光,也成为了2001年最受影迷期待的影片之一。

  影片由四段动作戏组成。开场戏可称为纯属炫耀女主角的不凡身手,无甚戏剧性可言。第二场是劳拉大战盗匪,发生在一个类似大英博物馆的空旷建筑;这场以劳拉身绑橡皮筋做空翻为创意的戏,从拍摄镜头的调度讲,不乏新意,但打斗本身没什么可喝彩的地方。对场景利用最出彩的是柬埔寨吴哥窟那一场。最后一场在北极的戏根本没有利用外景的特色,设计的内景颇有看头,但打斗部分乏善可陈。劳拉的扮演者安吉丽娜?朱莉美艳中带着一股野性,她的眼神散发出不屑一顾的光芒,仿佛除了她父亲之外谁都不在她眼里。身穿紧身衣的劳拉用来当海报再合适不过了,但光靠形象难以支撑起一出戏。该片的动作片段拍得不算差,但缺乏游刃有余的潇洒。

General
Complete name                    : E:\南宫\做种\古墓丽影二部曲@圣城南宫\Lara.Croft.Tomb.Raider.2001.BluRay.720p.x264.2Audio.AC3-CnSCG.mkv
Format                           : Matroska
File size                        : 3.01 GiB
Duration                         : 1h 40mn
Overall bit rate                 : 4 283 Kbps
Encoded date                     : UTC 2012-04-01 01:30:21
Writing application              : mkvmerge v3.3.0 ('Language') built on Mar 24 2010 14:59:24
Writing library                  : libebml v0.8.0 + libmatroska v0.9.0

Video
ID                               : 1
Format                           : AVC
Format/Info                      : Advanced Video Codec
Format profile                   : High@L4.1
Format settings, CABAC           : Yes
Format settings, ReFrames        : 4 frames
Muxing mode                      : Container profile=Unknown@4.1
Codec ID                         : V_MPEG4/ISO/AVC
Duration                         : 1h 40mn
Bit rate                         : 3 301 Kbps
Nominal bit rate                 : 3 385 Kbps
Width                            : 1 280 pixels
Height                           : 720 pixels
Display aspect ratio             : 16:9
Frame rate                       : 23.976 fps
Resolution                       : 24 bits
Colorimetry                      : 4:2:0
Scan type                        : Progressive
Bits/(Pixel*Frame)               : 0.149
Stream size                      : 2.32 GiB (77%)
Writing library                  : x264 core 120 r2164 da19765
Encoding settings                : cabac=1 / ref=4 / deblock=1:-3:-3 / analyse=0x3:0x113 / me=umh / subme=9 / psy=1 / psy_rd=1.00:0.00 / mixed_ref=1 / me_range=32 / chroma_me=1 / trellis=2 / 8x8dct=1 / cqm=0 / deadzone=21,11 / fast_pskip=0 / chroma_qp_offset=-1 / threads=6 / sliced_threads=0 / nr=0 / decimate=0 / interlaced=0 / bluray_compat=0 / constrained_intra=0 / bframes=3 / b_pyramid=2 / b_adapt=2 / b_bias=0 / direct=1 / weightb=1 / open_gop=0 / weightp=2 / keyint=240 / keyint_min=23 / scenecut=40 / intra_refresh=0 / rc_lookahead=40 / rc=2pass / mbtree=1 / bitrate=3385 / ratetol=1.0 / qcomp=0.60 / qpmin=0 / qpmax=69 / qpstep=4 / cplxblur=20.0 / qblur=0.5 / ip_ratio=1.40 / aq=1:1.00
Language                         : English

Audio #1
ID                               : 2
Format                           : AC-3
Format/Info                      : Audio Coding 3
Codec ID                         : A_AC3
Duration                         : 1h 40mn
Bit rate mode                    : Constant
Bit rate                         : 448 Kbps
Channel(s)                       : 6 channels
Channel positions                : Front: L C R, Surround: L R, LFE
Sampling rate                    : 48.0 KHz
Stream size                      : 322 MiB (10%)
Title                            : English DD5.1 448k
Language                         : English

Audio #2
ID                               : 3
Format                           : AC-3
Format/Info                      : Audio Coding 3
Codec ID                         : A_AC3
Duration                         : 1h 40mn
Bit rate mode                    : Constant
Bit rate                         : 448 Kbps
Channel(s)                       : 6 channels
Channel positions                : Front: L C R, Surround: L R, LFE
Sampling rate                    : 48.0 KHz
Stream size                      : 322 MiB (10%)
Title                            : Mandarin DD5.1 448k
Language                         : Chinese

Text #1
ID                               : 4
Format                           : SSA
Codec ID                         : S_TEXT/SSA
Codec ID/Info                    : Sub Station Alpha
Language                         : Chinese

Text #2
ID                               : 5
Format                           : SSA
Codec ID                         : S_TEXT/SSA
Codec ID/Info                    : Sub Station Alpha
Language                         : English

Text #3
ID                               : 6
Format                           : SSA
Codec ID                         : S_TEXT/SSA
Codec ID/Info                    : Sub Station Alpha
Language                         : Chinese

Text #4
ID                               : 7
Format                           : UTF-8
Codec ID                         : S_TEXT/UTF8
Codec ID/Info                    : UTF-8 Plain Text
Language                         : English





◎译  名 古墓丽影2/盗墓者罗拉:生命之匙/古墓奇兵:风起云涌
◎片  名 Lara Croft Tomb Raider 2
◎年  代 2003
◎国  家 美国/德国/日本/英国/荷兰
◎类  别 动作/冒险/幻想/惊悚
◎语  言 英语
◎IMDB评分 5.2/10 (18,027 votes)
◎IMDB连接 http://www.imdb.com/title/tt0325703/
◎片  长 117 Min
◎导  演 简·德·邦特 Jan de Bont
◎主  演 安吉丽娜·朱莉 Angelina Jolie .....Lara Croft
      杰拉德·巴特勒 Gerard Butler .....Terry Sheridan
      塞伦·希德 Ciarán Hinds .....Jonathan Reiss
      诺亚·泰勒 Noah Taylor .....Bryce
      杰曼·翰苏 Djimon Hounsou .....Kosa
      任达华 Simon Yam .....Chen Lo
      尹子维 Terence Yin .....Xien
      迈克尔·瓦格 Michael Wagg .....Lead Tech
      Chris Barrie .....Hillary (as Christopher Barrie)
      Til Schweiger .....Sean
      Daniel Caltagirone .....Nicholas Petraki
      Fabiano Martell .....Jimmy Petraki
      Jonathan Coyne .....Gus Petraki
      Robert Cavanah .....MI6 Agent Stevens
      Ronan Vibert .....MI6 Agent Calloway
      Lenny Juma .....Village Leader
      Raymond Ofula .....Village Leader (as Raymond Offula)

◎简  介 

  女探险家劳拉·克劳福特的生活,总是充满着各种凡人不可想象的惊奇与神秘。这一次,劳拉追随着“生命摇篮”的传说,又一次将目标瞄准了古老的神秘世界——已经沉入大海的月神庙。
  劳拉收集来的各种线索都显示着,神秘的月神庙正是传说中“潘朵拉魔盒”的埋藏地。据我们所知,“潘朵拉魔盒”是上古世界的神秘宝藏,蕴含着足以毁灭整个人类的巨大能量。但这样充满强大力量的宝藏,自然也招来了**势力的窥伺。由香港黑社会头子陈洛(Chen Lo)所率领的犯罪集团,妄想夺取“潘朵拉魔盒”,获得其中足以摧毁地球的神秘力量!为了阻止犯罪集团背后所掩盖的**野心,劳拉必须抢先找回盒子,破坏陈洛的计划……

幕后:

【精彩延续】
  2001年的《古墓丽影》可谓非同反响,在全球爆收将近2亿 8000万美元票房。不但让制片商大赚一笔,更创造了迄今为止女性主演影片的最高首映票房纪录。出乎意料的卖座令派拉蒙在《古墓丽影2》的筹拍过程中毫不吝惜的一掷千金,不但请回了安吉丽娜·朱莉继续担纲,更充分接受了观众建议,力邀《龙卷风》和《生死时速》系列的导演简·德·邦特执导,以期完善劳拉的个性魅力,而不会再像首部那样,让劳拉化身为胸大无脑四肢发达的动作机器。为了确保本片的动作场面能够更加酷炫惊险,制片方请来了四部007影片和《终结者 3》的动作特技指导西蒙·克雷恩(Simon Crane),他的加盟无疑为导演在拍摄动作场面时吃了颗定心丸。
  在谈起首部《古墓丽影》时,安吉丽娜·朱莉依然印象深刻,因为她第一次如此全身心的关注于这个动作角色,朱莉接受了体操、举重、蹦极、摩托车、拳击、武术、兵器、体能和瑜珈的严格训练。“劳拉是我扮演过的最具挑战性的角色之一,”朱莉说。于是,当续集的拍摄计划日渐成形时,朱莉热切的希望再次担纲,向新的高度发出挑战,成为世人瞩目的动作女英雄。
  曾同样担纲首部《古墓丽影》的制片人劳伦斯·戈登(Lawrence Gordon)和劳埃德·莱文(Lloyd Levin)认为影片的魅力在于既有奇幻也有现实,劳拉一边身处古老的历史和神话中,一边又置身于拥有尖端科技的当今世界里,全片中突显着世界性元素。劳埃德·莱文说:“当我们得知简·德·邦特对本片表现出浓厚兴趣后,立即将导演的最佳人选锁定在他身上,因为邦特懂得动作,擅长制造紧张悬念,影片导演非他莫数。”
  本片编剧迪恩·乔加里斯(Dean Georgaris)在此之前曾与吴宇森合作过《记忆裂痕》,他在谈到与简·德·邦特的合作体验时说:“我们的合作是我经历过最愉快的,在动作场面中邦特起着导向作用,而且有效的提高了视觉冲击力。”

【古墓丽影2:更性感的劳拉】
  好莱坞美女安吉莉娜·朱莉不久前发布了一条让喜欢劳拉的男性影迷垂涎的承诺--在影片中劳拉的形象会更加性感。朱莉,正在与她的第二任丈夫比利·鲍勃· 松顿办理离婚,在续集中,她将稍微改变她在第一部中那个勇猛无畏的考古学家的形象--劳拉看起来会更有女人味一些。朱莉说:“我想大家已经从各个方面认识了劳拉,为了让影片看起来更为真实,我们决定在这个聪明的女人的头脑中稍微灌输些糊涂的元素,这是她看起来更像一个女人。我想上部片中我得动作戏真的很多,但却吃了很多令我变得行动缓慢的蛋白质食品。于是这次我吃的就不一样了,由鸡蛋和豆子做成的面包就是一个好的选择,而且每天都尽可能多的作一些体能训练。我想这次的劳拉看起来会更利落、更强壮、更性感,相信那会是一个锋芒毕露的劳拉。”

【身临其境】
  与导演简·德·邦特一起同心协力的还有曾三次夺得奥斯卡最佳剪辑奖的剪辑师迈克尔·卡恩(Michael Kahn)、曾加盟《爱国者》的美工设计师柯克·M·佩特鲁塞利(Kirk M. Petruccelli)。后者精心设计了片中多处风格迥异、暗藏机关的墓穴,并在非洲、亚洲和欧洲搭建了102处布景。其中最大的一处是在英国松林制片厂的007摄影棚中搭建的月神庙,庙里不但有15英尺高的亚历山大大帝的铜制雕像、多利斯式圆柱、墓穴和巨大的铜马车,还要打造出地震后的模样,神庙部分浸在水中,地面成45度角倾斜,布景工作难上加难。
  在松林制片厂的外景地,剧组的建筑人员搭建了全片最迷人的一处布景--上海的花塔广场,设计人员力求在每个细节都做到真实完美,而且很多物品都从香港购买,其中甚至包括干蛤蚧、皮蛋酥和20多种茶叶,哪怕干货店的纸都来自中国大陆。一位来自香港的书法家也被请到片场,书写出各种汉语标识。

【惊险一幕】
  片中最复杂的一场特技场景是劳拉和特里从里斯博士的实验室逃出跳下悬崖的一段,由朱莉和巴特勒跳下悬崖和特技替身的下落画面合成,为了完成这组特技,特技演员曾从直升机上跳下过20次,从世界第三高建筑--香港的国际金融中心跳下过8次。获准在香港的国际金融中心起跳可谓颇费周折,最终特技演员从第84层跳下,距地面将近1000英尺。
  特技指导克雷恩说:“让两个人在1000英尺高度起跳并在200英尺处打开降落伞的难度很大,而且还需要第三个人拍下他们的下落过程,于是我们请来了一支瑞典的高空特技表演小组,他们精湛的技艺确保了整个过程的安全。”

【装备&外景】
  在本片中,劳拉的高科技装备成为新奇看点,其中只有化妆盒大小的松下新型便携视听产品AV2O/30 eWear/d-Snap不但可以记录影像,还设有内置MP3和SD卡。而外形硬朗前卫的吉普车则由克莱斯勒的设计人员同本片美工设计师联合完成,这部以吉普牧马人Rubicon为基础改装而成的酷车在片中出尽风头,还在当年被当作限量版销售。
  曾获奥斯卡奖的服装设计师林迪·海明(Lindy Hemming)继续在片中担纲。“朱莉的身材已经很完美了,所以不必再进行刻意雕琢,一切只要简洁、精致并新潮就可以了,”海明说道。劳拉在片中最惹眼的一套服装是海明为她设计的银色紧身潜水衣,一共制作了8套,采用了来自日本和中国的面料。
  在为期6个月的全球奔拍中,剧组先是在希腊开拍,随后辗转至威尔士,然后继续赶往非洲,在肯尼亚和坦桑尼亚取景,最后一站则是中国香港和大陆。其中剧组在威尔士搭建了一个依山傍水的中国村庄,并请来很多当地华裔来作临时演员。在非洲的肯尼亚,当地的游牧部落波克特(Pokot)的部分村民扮演了片中劳拉在非洲发现的神秘部落,波克特人至今还穿着山羊皮制成的服装,在当地只有大约2万人,绝大多数从未看过电影。在地狱门国家公园和安博塞利国家公园取景后,剧组进入坦桑尼亚,经过反复协商之后,终于获准在活火山上拍摄。

【朱莉的亲身历险和担任她替身的男人】
  作为那个享誉全球的虚拟女英雄劳拉的饰演者,安吉莉娜·朱莉的确与众不同。可是制片却为了影片中的特技动作场面伤透了脑筋,拥有那种完美体格的女替身还真不是很好找,可不是怎样才能找到一个与朱莉相比相对完美的替身? 
  答案是:找一个男人代替。
  设计师和化妆师们力求让替身的形象与朱莉相符,长及背部的秀发,同样的太阳镜和服饰。尽管如此,与27岁,身材凹凸有致的朱莉相比,其差别还是很大的。
  “紧身的衣服很不适合他,在现场,男性彪悍的体形十分明显。相信穿上那套衣服任何男人都不会觉得舒服,但巧妙的镜头角度变化和灯光效果柔化了线条,所以观众不会看出差别。”

General
Complete name                    : E:\南宫\做种\古墓丽影二部曲@圣城南宫\Lara.Croft.Tomb.Raider.The.Cradle.Of.Life.2003.BluRay.720p.x264.AC3-CnSCG.mkv
Format                           : Matroska
File size                        : 3.01 GiB
Duration                         : 1h 57mn
Overall bit rate                 : 3 670 Kbps
Movie name                       : NanGong@CnSCG
Encoded date                     : UTC 2012-04-04 04:14:36
Writing application              : mkvmerge v3.3.0 ('Language') built on Mar 24 2010 14:59:24
Writing library                  : libebml v0.8.0 + libmatroska v0.9.0

Video
ID                               : 1
Format                           : AVC
Format/Info                      : Advanced Video Codec
Format profile                   : High@L4.1
Format settings, CABAC           : Yes
Format settings, ReFrames        : 4 frames
Muxing mode                      : Container profile=Unknown@4.1
Codec ID                         : V_MPEG4/ISO/AVC
Duration                         : 1h 57mn
Bit rate                         : 3 149 Kbps
Nominal bit rate                 : 3 221 Kbps
Width                            : 1 280 pixels
Height                           : 720 pixels
Display aspect ratio             : 16:9
Frame rate                       : 23.976 fps
Resolution                       : 24 bits
Colorimetry                      : 4:2:0
Scan type                        : Progressive
Bits/(Pixel*Frame)               : 0.143
Stream size                      : 2.58 GiB (86%)
Writing library                  : x264 core 120 r2164 da19765
Encoding settings                : cabac=1 / ref=4 / deblock=1:-3:-3 / analyse=0x3:0x113 / me=umh / subme=9 / psy=1 / psy_rd=1.00:0.00 / mixed_ref=1 / me_range=32 / chroma_me=1 / trellis=2 / 8x8dct=1 / cqm=0 / deadzone=21,11 / fast_pskip=0 / chroma_qp_offset=-1 / threads=6 / sliced_threads=0 / nr=0 / decimate=0 / interlaced=0 / bluray_compat=0 / constrained_intra=0 / bframes=3 / b_pyramid=2 / b_adapt=2 / b_bias=0 / direct=1 / weightb=1 / open_gop=0 / weightp=2 / keyint=240 / keyint_min=23 / scenecut=40 / intra_refresh=0 / rc_lookahead=40 / rc=2pass / mbtree=1 / bitrate=3221 / ratetol=1.0 / qcomp=0.60 / qpmin=0 / qpmax=69 / qpstep=4 / cplxblur=20.0 / qblur=0.5 / ip_ratio=1.40 / aq=1:1.00
Language                         : English

Audio
ID                               : 2
Format                           : AC-3
Format/Info                      : Audio Coding 3
Codec ID                         : A_AC3
Duration                         : 1h 57mn
Bit rate mode                    : Constant
Bit rate                         : 448 Kbps
Channel(s)                       : 6 channels
Channel positions                : Front: L C R, Surround: L R, LFE
Sampling rate                    : 48.0 KHz
Stream size                      : 376 MiB (12%)

Text #1
ID                               : 3
Format                           : SSA
Codec ID                         : S_TEXT/SSA
Codec ID/Info                    : Sub Station Alpha
Title                            : 上中下英
Language                         : Chinese

Text #2
ID                               : 4
Format                           : SSA
Codec ID                         : S_TEXT/SSA
Codec ID/Info                    : Sub Station Alpha
Title                            : 上英下中
Language                         : English

Text #3
ID                               : 5
Format                           : SSA
Codec ID                         : S_TEXT/SSA
Codec ID/Info                    : Sub Station Alpha
Title                            : 中文字幕
Language                         : Chinese

Text #4
ID                               : 6
Format                           : UTF-8
Codec ID                         : S_TEXT/UTF8
Codec ID/Info                    : UTF-8 Plain Text
Title                            : 英文字幕
Language                         : English





【TIPS】:要下载资源,首先,你得有一个女朋友...哦不,是你得有一个BT下载工具(例如迅雷啊、迅雷啊之类的)。
【继续TIPS】:如不能下载或者迅雷下载出错请进群【报错】!群主会抚慰你受伤的心灵的……
天天BT交流群
热门下载:

随机推荐: