资源搜索:
天天BT交流群
你的位置 : 天天BT > 电影 > 动作片 > 傲慢与偏见与僵尸/傲慢与尸变(港) Pride.and.Prejudice.and.Zombies.2016.720p.WEBRip.x264.AAC2.0-FGT

傲慢与偏见与僵尸/傲慢与尸变(港) Pride.and.Prejudice.and.Zombies.2016.720p.WEBRip.x264.AAC2.0-FGT迅雷下载

发布者/来源 老调网
发布时间 2016/4/1
相关标签 僵尸,傲慢与偏见,傲慢与偏见与僵尸,720p,2016,x264,Zombi,Pride
资源类型 磁力链接
下载次数 47
评论 我要吐槽
分享
PS 信息来自网络或网友上传.
 


◎译  名 傲慢与偏见与僵尸/傲慢与尸变(港)/傲慢+偏见+僵尸(台)  
◎片  名 Pride and Prejudice and Zombies
◎年  代 2016
◎国  家 美国/英国
◎类  别 动作/爱情/恐怖
◎语  言 英语
◎字  幕 N/A
◎IMDb评分 6.4/10 from 5,422 users
◎IMDB链接 http://imdb.com/title/tt1374989/
◎文件格式 x264 + AAC
视频尺寸 1280x568
文件大小 2.48 GiB
◎片  长 1h 42mn
◎导  演 布尔·斯蒂尔斯 Burr Steers
◎主  演 莉莉·詹姆斯 Lily James
      萨姆·赖利 Sam Riley
      杰克·休斯顿 Jack Huston
      贝拉·希思科特 Bella Heathcote
      道格拉斯·布斯 Douglas Booth
      马特·史密斯 Matt Smith
      查尔斯·丹斯 Charles Dance
      琳娜·海蒂 Lena Headey
      苏琪·沃特豪斯 Suki Waterhouse
      艾玛·格林威尔 Emma Greenwell
      埃斯林·洛福斯 Aisling Loftus
      莎莉·菲利普斯 Sally Phillips
      艾丽·巴姆博 Ellie Bamber
      米莉·布拉迪 Millie Brady

◎简  介



  《傲慢与偏见与僵尸》的作者是塞斯·格拉汉姆-史密斯(Seth Graham-Smith),他沿用奥斯汀的故事设定和语言风格,讲述了伊丽莎白·班纳特所在的小镇降临了一场瘟疫,很多人都变成了僵尸,伊丽莎白立志要把僵尸全部消灭掉,然而傲慢无礼的达西先生的到来,打乱了她的计划,经过一番斗嘴和好,两人开始携起手来对付僵尸,最终拯救了小镇。



Video
ID                                       : 1
Format                                   : AVC
Format/Info                              : Advanced Video Codec
Format profile                           : High@L4.1
Format settings, CABAC                   : Yes
Format settings, ReFrames                : 4 frames
Codec ID                                 : avc1
Codec ID/Info                            : Advanced Video Coding
Duration                                 : 1h 42mn
Bit rate                                 : 3 500 Kbps
Width                                    : 1 280 pixels
Height                                   : 570 pixels
Display aspect ratio                     : 2.25:1
Frame rate mode                          : Constant
Frame rate                               : 25.000 fps
Color space                              : YUV
Chroma subsampling                       : 4:2:0
Bit depth                                : 8 bits
Scan type                                : Progressive
Bits/(Pixel*Frame)                       : 0.192
Stream size                              : 2.43 GiB (94%)
Title                                    : Pride.and.Prejudice.and.Zombies.2016.720p.WEBRip.x264.AAC2.0-FGT
Writing library                          : x264 core 142 r2495 6a301b6
Encoding settings                        : cabac=1 / ref=4 / deblock=1:0:0 / analyse=0x3:0x113 / me=umh / subme=8 / psy=1 / psy_rd=1.00:0.00 / mixed_ref=1 / me_range=16 / chroma_me=1 / trellis=1 / 8x8dct=1 / cqm=0 / deadzone=21,11 / fast_pskip=1 / chroma_qp_offset=-2 / threads=12 / lookahead_threads=2 / sliced_threads=0 / nr=0 / decimate=1 / interlaced=0 / bluray_compat=0 / constrained_intra=0 / bframes=3 / b_pyramid=2 / b_adapt=2 / b_bias=0 / direct=3 / weightb=1 / open_gop=0 / weightp=2 / keyint=250 / keyint_min=25 / scenecut=40 / intra_refresh=0 / rc_lookahead=50 / rc=abr / mbtree=1 / bitrate=3500 / ratetol=1.0 / qcomp=0.60 / qpmin=0 / qpmax=69 / qpstep=4 / ip_ratio=1.40 / aq=1:1.00

Audio
ID                                       : 2
Format                                   : AAC
Format/Info                              : Advanced Audio Codec
Format profile                           : LC
Codec ID                                 : 40
Duration                                 : 1h 42mn
Bit rate mode                            : Constant
Bit rate                                 : 224 Kbps
Channel(s)                               : 2 channels
Channel positions                        : Front: L R
Sampling rate                            : 48.0 KHz
Frame rate                               : 46.875 fps (1024 spf)
Compression mode                         : Lossy
Stream size                              : 165 MiB (6%)
Title                                    : Pride.and.Prejudice.and.Zombies.2016.720p.WEBRip.x264.AAC2.0-FGT
Default                                  : Yes
Alternate group                          : 1



【TIPS】:要下载资源,首先,你得有一个女朋友...哦不,是你得有一个BT下载工具(例如迅雷啊、迅雷啊之类的)。
【继续TIPS】:如不能下载或者迅雷下载出错请进群【报错】!群主会抚慰你受伤的心灵的……
天天BT交流群
热门下载:

随机推荐: