资源搜索:
天天BT交流群
你的位置 : 天天BT > 电影 > 喜剧片 > 年兽大作战/疯狂的年兽 Mr. Nian.2016.1080p.WEB-DL.x264.AAC-SeeHD

年兽大作战/疯狂的年兽 Mr. Nian.2016.1080p.WEB-DL.x264.AAC-SeeHD迅雷下载

发布者/来源 老调网
发布时间 2016/4/1
相关标签 1080,1080p,2016,x264,年兽大作战,疯狂的年兽,大作战
资源类型 磁力链接
下载次数 16
评论 我要吐槽
分享
PS 信息来自网络或网友上传.


◎译  名 年兽大作战/疯狂的年兽
◎片  名 Mr. Nian / Crazy Nian
◎年  代 2016
◎国  家 中国   
◎类  别  喜剧/动画/奇幻
◎语  言 普通话
◎字  幕 简体中文
◎IMDb评分 N/A
◎IMDb链接 N/A
◎文件格式   x264 + AAC
视频尺寸 1920 x 1080   
文件大小 4.09 GiB
◎片  长 1h 36mn
◎导  演 张扬  Yang Zhang
◎主  演   雷佳音  Jiayin Lei ...年兽
        周冬雨  Dongyu Zhou ...沙果
        陈赫  He Chen ..大鱼
        刘仪伟  Yiwei Lau ...太白金星
        沈腾  Teng Shen ...土地公
        陶虹  Hong Tao ...兔奶奶
        王迅  Xun Wang ...八婆老师
        张一白  Yibai Zhang ...校长
        郭涛  Tao Guo ...大东
        郭子睿  Patrick ...小东
        郝云  Yun Hao ...灶王爷
        熊乃瑾  Naijin Xiong ...嫦娥
   
   
◎简  介

  “过大年”,是中国人一年到头最重要的事,也是维系中国人情感的纽带。可天宫里的年兽(雷佳音 配音)却并不爱过年!为了取消春节,年兽险些捅下大篓子,他不得不来到人间,结识了小女孩沙果(周冬雨 配音)。一个超级大坏蛋和叛逆小萝莉的奇幻之旅即将开始,一场欢乐热闹的爆笑喜剧就此展开……
General
Format                         : MPEG-4
Format profile                 : Base Media
Codec ID                       : isom
File size                      : 4.09 GiB
Duration                       : 1h 36mn
Overall bit rate mode          : Variable
Overall bit rate               : 6 041 Kbps

Video
ID                             : 1
Format                         : AVC
Format/Info                    : Advanced Video Codec
Format profile                 : High@L4
Format settings, CABAC         : Yes
Format settings, ReFrames      : 4 frames
Codec ID                       : avc1
Codec ID/Info                  : Advanced Video Coding
Duration                       : 1h 36mn
Bit rate                       : 6 000 Kbps
Maximum bit rate               : 13.3 Mbps
Width                          : 1 920 pixels
Height                         : 1 080 pixels
Display aspect ratio           : 16:9
Frame rate mode                : Constant
Frame rate                     : 25.000 fps
Color space                    : YUV
Chroma subsampling             : 4:2:0
Bit depth                      : 8 bits
Scan type                      : Progressive
Bits/(Pixel*Frame)             : 0.116
Stream size                    : 3.95 GiB (97%)
Title                          : VideoByEZMediaEditor
Writing library                : x264()-core 129 - H.264/MPEG-4

Audio
ID                             : 2
Format                         : AAC
Format/Info                    : Advanced Audio Codec
Format profile                 : LC
Codec ID                       : 40
Duration                       : 1h 36mn
Bit rate mode                  : Variable
Bit rate                       : 192 Kbps
Maximum bit rate               : 199 Kbps
Channel(s)                     : 2 channels
Channel positions              : Front: L R
Sampling rate                  : 44.1 KHz
Compression mode               : Lossy
Stream size                    : 131 MiB (3%)
Title                          : Audio1-
Encoded date                   : UTC 2016-03-11 05:58:31
Tagged date                    : UTC 2016-03-11 05:58:40




【TIPS】:要下载资源,首先,你得有一个女朋友...哦不,是你得有一个BT下载工具(例如迅雷啊、迅雷啊之类的)。
【继续TIPS】:如不能下载或者迅雷下载出错请进群【报错】!群主会抚慰你受伤的心灵的……
天天BT交流群
热门下载:

随机推荐: