资源搜索:
天天BT交流群
你的位置 : 天天BT > 电影 > 喜剧片 > 失常/不寻常的她/失常丽莎/异常现象/安诺玛丽莎(台)/不正常丽莎(港) Anomalisa.2015.720p.WEB-DL.DD5.1.H264-RARBG

失常/不寻常的她/失常丽莎/异常现象/安诺玛丽莎(台)/不正常丽莎(港) Anomalisa.2015.720p.WEB-DL.DD5.1.H264-RARBG迅雷下载

发布者/来源 老调网
发布时间 2016/4/1
相关标签 720p,2015,失常
资源类型 磁力链接
下载次数 15
评论 我要吐槽
分享
PS 信息来自网络或网友上传.
 
◎译  名 失常/不寻常的她/失常丽莎/异常现象/安诺玛丽莎(台)/不正常丽莎(港)
◎片  名 Anomalisa
◎年  代 2015
◎国  家 美国
◎类  别 动画/喜剧/喜剧/爱情
◎语  言 英语
◎字  幕 英文
◎IMDb评分  7.5/10 from 16,672 users
◎IMDb链接  http://www.imdb.com/title/tt2401878
◎文件格式 H264 + DD5.1
视频尺寸 1280 x 532
文件大小 2.83 GiB
◎片  长 1h 30mn
◎导  演 查理·考夫曼 Charlie Kaufman
      杜克·约翰逊 Duke Johnson
◎主  演 大卫·休里斯 David Thewlis
      詹妮弗·杰森·李 Jennifer Jason Leigh
      汤姆·诺南 Tom Noonan

◎简  介

  电影跟随着一位成功励志演说家的故事,当他改变别人的时候,自己却在慢慢迷失。他的生活变得越发单调无味,他发现别人的生活也一样。直到有一天,突然一个女孩的出现改变了他的生活......

花絮

.除了男女主角之外,影片中出现的所有角色,无论男女,都是由汤姆·洛南一个人配音完成的。

.影片中主角下榻在Fregoli酒店。而Fregoli在医学上是一种妄想综合症的名字,即弗雷格利妄想综合症,这类患者认为身边许许多多的人其实都是同一个人的伪装。而主人公正巧是这一症状。

.影片是在Kickstarter.com网站上通过众筹的方式,筹集到资金拍摄的。

.联合导演Duke Johnson透露,为了完成片中那场床戏,总共花去6个月的时间,主要是由于一些技术原因以及让这场戏竟可能地“写实”。

.影片中主人公在旅馆里观看的电影是1936年的好莱坞神经喜剧《我的高德弗里》,主演为卡洛·朗白和威廉·鲍威尔;当然,老电影也被用动画的方式复制。

.影片中艺妓玩偶唱的是一首日本儿歌,名叫《桃太郎》。

.影片中丽萨在听的歌曲原本应该是席琳·迪昂演唱的《我心永恒》,但是电影没有得到使用这首《泰坦尼克》主题曲的许可,不得已之下换成了辛迪·劳帕的《女孩只想找乐 》。

.影片原本计划是拍成只有40分钟的短片。

.影片是奥斯卡历史上首部获得最佳动画长片提名的R级别动画片。

获奖记录

奥斯卡金像奖(2016;第88届)
提名
·奥斯卡奖-最佳动画长片查理·考夫曼 Charlie Kaufman   Rosa Tran  杜克·强森 Duke Johnson  

美国金球奖(2016;第73届)
提名
·电影类-最佳动画片
  • Video
  • ID                                       : 1
  • Format                                   : AVC
  • Format/Info                              : Advanced Video Codec
  • Format profile                           : Main@L3.1
  • Format settings, CABAC                   : No
  • Format settings, ReFrames                : 2 frames
  • Codec ID                                 : V_MPEG4/ISO/AVC
  • Duration                                 : 1h 30mn
  • Bit rate                                 : 3 979 Kbps
  • Width                                    : 1 280 pixels
  • Height                                   : 532 pixels
  • Display aspect ratio                     : 2.40:1
  • Frame rate mode                          : Constant
  • Frame rate                               : 23.976 fps
  • Color space                              : YUV
  • Chroma subsampling                       : 4:2:0
  • Bit depth                                : 8 bits
  • Scan type                                : Progressive
  • Bits/(Pixel*Frame)                       : 0.244
  • Stream size                              : 2.52 GiB (89%)
  • Title                                    : Anomalisa.2015.720p.WEB-DL.DD5.1.H264-RARBG
  • Language                                 : English
  • Default                                  : Yes
  • Forced                                   : No
  • Color range                              : Limited
  • Color primaries                          : BT.709
  • Transfer characteristics                 : BT.709
  • Matrix coefficients                      : BT.709
  •  
  • Audio
  • ID                                       : 2
  • Format                                   : AC-3
  • Format/Info                              : Audio Coding 3
  • Mode extension                           : CM (complete main)
  • Format settings, Endianness              : Big
  • Codec ID                                 : A_AC3
  • Duration                                 : 1h 30mn
  • Bit rate mode                            : Constant
  • Bit rate                                 : 384 Kbps
  • Channel(s)                               : 6 channels
  • Channel positions                        : Front: L C R, Side: L R, LFE
  • Sampling rate                            : 48.0 KHz
  • Frame rate                               : 31.250 fps (1536 spf)
  • Compression mode                         : Lossy
  • Stream size                              : 249 MiB (9%)
  • Title                                    : Anomalisa.2015.720p.WEB-DL.DD5.1.H264-RARBG
  • Language                                 : English
  • Default                                  : Yes
  • Forced                                   : No
  •  
  • Text
  • ID                                       : 3
  • Format                                   : UTF-8
  • Codec ID                                 : S_TEXT/UTF8
  • Codec ID/Info                            : UTF-8 Plain Text
  • Language                                 : English
  • Default                                  : Yes
  • Forced                                   : No
  •  
  • Menu
  • 00:00:00.000                             : en:Chapter 1
  • 00:05:09.000                             : en:Chapter 2
  • 00:12:29.000                             : en:Chapter 3
  • 00:18:27.000                             : en:Chapter 4
  • 00:25:26.000                             : en:Chapter 5
  • 00:31:39.000                             : en:Chapter 6
  • 00:37:24.000                             : en:Chapter 7
  • 00:43:19.000                             : en:Chapter 8
  • 00:52:19.000                             : en:Chapter 9
  • 01:01:04.000 
【TIPS】:要下载资源,首先,你得有一个女朋友...哦不,是你得有一个BT下载工具(例如迅雷啊、迅雷啊之类的)。
【继续TIPS】:如不能下载或者迅雷下载出错请进群【报错】!群主会抚慰你受伤的心灵的……
天天BT交流群
热门下载:

随机推荐: